论坛风格切换
  • 1482阅读
  • 13回复

[真人电影][2017][美国][变形金刚5:最后的骑士 Transformers.The.Last.Knight][BT下载][1080P-mkv/14.2G][英语/蓝光版] [复制链接]

上一主题 下一主题
离线剑齿虎
 

发帖
25
能量块
1060
经验值
185
贡献值
0
交易币
0


◎译  名 变形金刚5:最后的骑士/变形金刚:终极战士(港)/变形金刚5:最终骑士(台)
◎片  名 Transformers: The Last Knight
◎年  代 2017
◎产  地 美国
◎类  别 动作/科幻
◎语  言 英语
◎上映日期 2017-06-21(美国)/2017-06-23(中国大陆)
◎IMDb评分  5.3/10 from 44,750 users
◎IMDb链接  http://www.imdb.com/title/tt3371366/
◎豆瓣评分 4.9/10 from 104,064 users
◎豆瓣链接 https://movie.douban.com/subject/25824686/
◎片  长 149分钟/150分钟(中国大陆)
◎导  演 迈克尔·贝 Michael Bay
◎主  演 马克·沃尔伯格 Mark Wahlberg
伊莎贝拉·莫奈 Isabela Moner
劳拉·哈德克 Laura Haddock
安东尼·霍普金斯 Anthony Hopkins
乔什·杜哈明 Josh Duhamel
彼特·库伦 Peter Cullen
约翰·古德曼 John Goodman
斯坦利·图齐 Stanley Tucci
桑地亚哥·卡布瑞拉 Santiago Cabrera
吉尔·伯明翰 Gil Birmingham
渡边谦 Ken Watanabe
约翰·迪·玛吉欧 John Di Maggio
弗兰克·维尔克 Frank Welker
米彻·佩勒吉 Mitch Pileggi

◎简  介

《变形金刚5:最后的骑士》打破了《变形金刚》系列的核心故事,重新定义了人们心目中的英雄形象。人类和变形金刚开战,擎天柱失踪,拯救未来的关键就埋藏在历史的秘密之中,那是地球上变形金刚的历史。拯救世界的责任落在一支非同寻常的队伍身上:凯德·伊格尔(马克·沃尔伯格饰)、大黄蜂、一位英国爵士(安东尼·霍普金斯饰)还有一位牛津大学教授(劳拉·哈德克饰)。
每个人一生中都会遇到这样一个时刻,它召唤着我们去改变世界。在《变形金刚5:最后的骑士》中,一直被追捕的人将成为英雄,英雄会变成反派。我们和他们的世界,只能存活一个。

Video
ID                                       : 1
Format                                   : AVC
Format/Info                              : Advanced Video Codec
Format profile                           : High@L4.1
Format settings, CABAC                   : Yes
Format settings, ReFrames                : 4 frames
Codec ID                                 : V_MPEG4/ISO/AVC
Duration                                 : 2h 34mn
Bit rate                                 : 12.5 Mbps
Width                                    : 1 920 pixels
Height                                   : 1 008 pixels
Display aspect ratio                     : 1.905
Frame rate mode                          : Constant
Frame rate                               : 23.976 (24000/1001) fps
Color space                              : YUV
Chroma subsampling                       : 4:2:0
Bit depth                                : 8 bits
Scan type                                : Progressive
Bits/(Pixel*Frame)                       : 0.270
Stream size                              : 13.2 GiB (93%)
Writing library                          : x264 core 152 r2851 ba24899
Encoding settings                        : cabac=1 / ref=4 /deblock=1:-3:-3 / analyse=0x3:0x113 / me=umh / subme=8 / psy=1 /psy_rd=1.00:0.00 / mixed_ref=1 / me_range=32 / chroma_me=1 / trellis=2 /8x8dct=1 / cqm=0 / deadzone=21,11 / fast_pskip=1 / chroma_qp_offset=-2 /threads=24 / lookahead_threads=4 / sliced_threads=0 / nr=0 / decimate=1/ interlaced=0 / bluray_compat=0 / constrained_intra=0 / bframes=3 /b_pyramid=2 / b_adapt=2 / b_bias=0 / direct=3 / weightb=1 / open_gop=0 /weightp=2 / keyint=240 / keyint_min=24 / scenecut=40 / intra_refresh=0 /rc_lookahead=50 / rc=2pass / mbtree=1 / bitrate=12518 / ratetol=1.0 /qcomp=0.60 / qpmin=0 / qpmax=69 / qpstep=4 / cplxblur=20.0 / qblur=0.5 /ip_ratio=1.40 / aq=3:0.80
Default                                  : Yes
Forced                                   : No
Statistics Tags Issue                    : no_variable_data 1970-01-01 00:00:00 / no_variable_data 2010-02-22 21:41:29
FromStats_BitRate                        : 12515393
FromStats_Duration                       : 02:34:38.770000000
FromStats_FrameCount                     : 222468
FromStats_StreamSize                     : 14515931881

Audio
ID                                       : 2
Format                                   : AC-3
Format/Info                              : Audio Coding 3
Mode extension                           : CM (complete main)
Format settings, Endianness              : Big
Codec ID                                 : A_AC3
Duration                                 : 2h 34mn
Bit rate mode                            : Constant
Bit rate                                 : 640 Kbps
Channel(s)                               : 6 channels
Channel positions                        : Front: L C R, Side: L R, LFE
Sampling rate                            : 48.0 KHz
Frame rate                               : 31.250 fps (1536 spf)
Compression mode                         : Lossy
Stream size                              : 708 MiB (5%)
Language                                 : English
Default                                  : Yes
Forced                                   : No
Statistics Tags Issue                    : no_variable_data 1970-01-01 00:00:00 / no_variable_data 2010-02-22 21:41:29
FromStats_BitRate                        : 640000
FromStats_Duration                       : 02:34:38.784000000
FromStats_FrameCount                     : 289962
FromStats_StreamSize                     : 742302720

Text #1
ID                                       : 3
Format                                   : UTF-8
Codec ID                                 : S_TEXT/UTF8
Codec ID/Info                            : UTF-8 Plain Text
Language                                 : English
Default                                  : No
Forced                                   : No
Statistics Tags Issue                    : no_variable_data 1970-01-01 00:00:00 / no_variable_data 2010-02-22 21:41:29
FromStats_BitRate                        : 67
FromStats_Duration                       : 02:24:43.424000000
FromStats_FrameCount                     : 2336
FromStats_StreamSize                     : 73440

Text #2
ID                                       : 4
Format                                   : UTF-8
Codec ID                                 : S_TEXT/UTF8
Codec ID/Info                            : UTF-8 Plain Text
Title                                    : SDH
Language                                 : English
Default                                  : No
Forced                                   : No
Statistics Tags Issue                    : no_variable_data 1970-01-01 00:00:00 / no_variable_data 2010-02-22 21:41:29
FromStats_BitRate                        : 75
FromStats_Duration                       : 02:25:48.781000000
FromStats_FrameCount                     : 2620
FromStats_StreamSize                     : 82631

Menu
00:00:00.000                             : en:00:00:00.000
00:06:36.104                             : en:00:06:36.104
00:14:03.468                             : en:00:14:03.468
00:21:45.763                             : en:00:21:45.763
00:27:53.255                             : en:00:27:53.255
00:33:53.907                             : en:00:33:53.907
00:40:08.906                             : en:00:40:08.906
00:46:58.941                             : en:00:46:58.941
00:53:25.786                             : en:00:53:25.786
01:02:02.928                             : en:01:02:02.928
01:08:47.081                             : en:01:08:47.081
01:14:37.223                             : en:01:14:37.223
01:20:10.180                             : en:01:20:10.180
01:29:13.390                             : en:01:29:13.390
01:37:59.499                             : en:01:37:59.499
01:44:57.583                             : en:01:44:57.583
01:51:15.502                             : en:01:51:15.502
01:57:59.447                             : en:01:57:59.447
02:06:09.729                             : en:02:06:09.729
02:10:54.096                             : en:02:10:54.096
02:16:01.153                             : en:02:16:01.153
02:21:42.619                             : en:02:21:42.619
02:25:17.292                             : en:02:25:17.292

Transformers.The.Last.Knight.2017.1080p.BluRay.X264-AMIABLE Transformers.The.Last.Knight.2017.1080p.BluRay.X264-AMIABLE.torrent (73 K) 下载次数:40
离线口袋钻石

发帖
6
能量块
235
经验值
30
贡献值
0
交易币
0
只看该作者 1 发表于: 09-17
g感谢分享
离线plalpc

发帖
70
能量块
2565
经验值
365
贡献值
0
交易币
0
只看该作者 2 发表于: 09-18
谢谢分享
离线bianjiren

发帖
272
能量块
10860
经验值
2361
贡献值
0
交易币
0
只看该作者 3 发表于: 09-18
继续等原盘
离线hk195480

发帖
2477
能量块
81105
经验值
13276
贡献值
0
交易币
0
只看该作者 4 发表于: 09-18
谢谢分享,非常好
从TF中来到TF中去!!!
离线玉狐狸

发帖
719
能量块
21815
经验值
3595
贡献值
0
交易币
0
只看该作者 5 发表于: 09-18
回 hk195480 的帖子
hk195480:谢谢分享,非常好 (2017-09-18 09:46) 

同表感谢
离线玉狐狸

发帖
719
能量块
21815
经验值
3595
贡献值
0
交易币
0
只看该作者 6 发表于: 09-18
回 口袋钻石 的帖子
口袋钻石:[表情] g感谢分享 (2017-09-17 23:47) 

同表感谢
离线sheiel

发帖
91
能量块
7490
经验值
455
贡献值
0
交易币
0
只看该作者 7 发表于: 09-18
万分感谢~

发帖
245
能量块
7430
经验值
1255
贡献值
0
交易币
0
只看该作者 8 发表于: 09-18
感谢
离线785463578

发帖
1
能量块
80
经验值
5
贡献值
0
交易币
0
只看该作者 9 发表于: 09-19
谢谢分享,非常好
离线carsky001

发帖
1
能量块
80
经验值
5
贡献值
0
交易币
0
只看该作者 10 发表于: 09-22
你所属的用户组没有下载附件的权限
离线kit9000

发帖
13
能量块
440
经验值
65
贡献值
0
交易币
0
只看该作者 11 发表于: 09-24
y所在用户组不让下载o(╥﹏╥)o
离线hk195480

发帖
2477
能量块
81105
经验值
13276
贡献值
0
交易币
0
只看该作者 12 发表于: 09-25
感谢,非常感谢
从TF中来到TF中去!!!
离线moonsa

发帖
3
能量块
140
经验值
15
贡献值
0
交易币
0
只看该作者 13 发表于: 09-25
              
快速回复
限120 字节
 
上一个 下一个